» » Nat 'King' Cole - Nat 'King' Cole's 8 Top Pops

Nat 'King' Cole - Nat 'King' Cole's 8 Top Pops download mp3

Nat 'King' Cole - Nat 'King' Cole's 8 Top Pops download mp3
Title:
Nat 'King' Cole's 8 Top Pops
Performer:
Style:
Swing
Released:
Country:
MP3 album size:
1865 mb
Other formats:
DMF APE VQF WMA XM MP4 MMF
Genre:
Rating:
4.6 ✪

Nat 'King' Cole's 8 Top Pops ‎(10", Album). Columbia, Compania Columbiana De Discos LTDA. Walkin' My Baby Back Home ‎(LP, Album, RE).

More albums from Nat King Cole: More Cole Español by Nat King Cole. Love Is The Thing by Nat King Cole. Melody Mile by Nat King Cole. Unforgettable by Nat King Cole. View all albums . Nat ‘King’ Cole’s 8 Top Pops. By: Nat King Cole (1954, Jazz). 1. Somewhere Along The Way. 2. Walkin’ My Baby Back Home.

Nat King Cole - The Ruby And The Pearl mp3. B4. Nat King Cole - A Weaver Of Dreams mp3. mp3 Player. Music video: Watch now Nat King Cole's video clip of album "Nat 'King' Cole's 8 Top Pops". Let's Face The Music. The page does not contains any audio, text, video media material,.

Nat 'King' Cole's 8 Top Pops (1954) 03. Faith Can Move Mountains. Nat "King" Cole A2. Walkin' My Baby Back Home. Nat 'King' Cole's 8 Top Pops (1954) 08. A Weaver Of Dreams.

Nat King Cole "Nat 'King' Cole's 8 Top Pops" (1954) album. Nat King Cole albums.

The Nat King Cole Christmas Album EMI Import 2002. After Midnight WAXTIME 2014.

Because You're Mine," Cole's cover of the Mario Lanza movie song (done in a far more relaxed style than Lanza's, of course), was also a major hit, reaching number 16. "Faith Can Move Mountains" and "The Ruby and the Pearl" were somewhat less successful, but still lodged in the Top 30, as did the B-sides "Funny (Not Much)" and "I'm Never Satisfied. The only one of the eight songs not to earn a chart placing was "A Weaver of Dreams," the B-side of the single "Wine, Women and Song.

Nat King Cole, Top Pops. INDEX 01 00:00:00 FILE "08 - Because You're Mine. wav" WAVE TRACK 08 AUDIO TITLE "Because You're Mine" PERFORMER "Nat King Cole" INDEX 01 00:00:00 FILE "09 - The Ruby And The Pearl. wav" WAVE TRACK 09 AUDIO TITLE "The Ruby And The Pearl" PERFORMER "Nat King Cole" INDEX 01 00:00:00 FILE "10 - A Weaver Of. Used drive : PBDS CD-ROM DH-48N1S Adapter: 1 ID: 0. Read mode : Secure Utilize accurate stream : Yes Defeat audio cache : Yes Make use of C2 pointers : No. Read offset correction : 6 Overread into Lead-In and Lead-Out : No Fill up missing offset samples with silence : Yes Delete leading and trailing silent blocks : No Null samples used in CRC calculations : Yes Used interface : Native Win32 interface for Win NT & 2000 Gap handling : Appended to previous track.

Tracklist

A1 Somewhere Along The Way
A2 Walkin' My Baby Back Home
A3 Faith Can Move Mountains
A4 Funny
B1 Because You're Mine
B2 I'm Never Satisfied
B3 The Ruby And The Pearl
B4 A Weaver Of Dreams

Notes

Manufactured by Pathé-Marconi in France.

Other versions

Category Artist Title (Format) Label Category Country Year
LCA 9110 Nat 'King' Cole* Nat 'King' Cole's 8 Top Pops ‎(10", Album) Telefunken Capitol LCA 9110 Germany Unknown
LZ 7156 Nat King Cole Top Pops ‎(LP, Album, Mono) Capitol Records LZ 7156 New Zealand Unknown
T-9110 Nat King Cole Lo Mejor De ‎(LP, Comp) Capitol Records T-9110 Argentina 1968
DT 8-1891 Nat King Cole Top Pops ‎(LP, Album, Club) Capitol Records DT 8-1891 US 1963
T 1891 Nat King Cole Top Pops ‎(LP, Album, Mono) Capitol Records T 1891 US 1963