» » Brad MehldauMario RossyPerico SambeatJordi Rossy - New York - Barcelona Crossing Vol. 2

Brad MehldauMario RossyPerico SambeatJordi Rossy - New York - Barcelona Crossing Vol. 2 download mp3

Brad MehldauMario RossyPerico SambeatJordi Rossy - New York - Barcelona Crossing Vol. 2 download mp3
Title:
New York - Barcelona Crossing Vol. 2
Performer:
Released:
MP3 album size:
1256 mb
Other formats:
MIDI XM DTS VQF MP1 RA AU
Genre:
Rating:
4.9 ✪

Brad Mehldau, Perico Sambeat, Mario Rossy & Jordi Rossy - New York - Barcelona Crossing Volume 2 Album. Artist: Brad Mehldau, Perico Sambeat, Mario Rossy & Jordi Rossy. Send "Brad Mehldau, Perico Sambeat, Mario Rossy & Jordi Rossy" Ringtones to your Cell. Album: New York - Barcelona Crossing Volume 2. 0. 1.

Recorded live at "JAMBOREE", Barcelona, May 10, 1993. Rights Society: SGAE.

musicians Brad Mehldau - piano Perico Sambeat - alto sax Mario Rossy - bass Jordi Rossy - drums. Produced by Jordi & Mario Rossy. ALBUM ARTIST %albumartist%. TOC of the extracted CD. Track Start Length Start sector End sector –- 1 0:00. 51 32 40282 2 8:57. 42 40283 96199 3 21:22. 15 96200 131764 4 29:16. 48 131765 165937 5 36:52. 07 165938 216944 6 48:12. 20 216945 254614 7 56

Artist: Brad Mehldau Perico Sambeat Title Of Album: New York-Barcelona Crossing Year Of Release:May 10, 1993 Label: Fresh Sound New Talent Genre: Jazz, Post Bop Quality: Mp3 Bitrate . 1 Wonderful Mehldau, Rossy, Rossy, Sambeat 13:55 2 Spring Can Really Hang You up the Most Mehldau, Rossy, Rossy, Sambeat 11:58 3 Old Folks Mehldau, Rossy, Rossy, Sambeat 10:01 4 Sushi Mehldau, Rossy, Rossy, Sambeat 7:41 5 Bodi Mehldau, Rossy, Rossy, Sambeat 8:16 6 Començar de Novo Mehldau, Rossy, Rossy, Sambeat 8:49 7 Just One of Those. Things Mehldau, Rossy, Rossy, Sambeat 9:32 8 No Blues Mehldau, Rossy, Rossy, Sambeat 1:57. Brad Mehldau Piano Jordi Rossy Drums Mario Rossy Drums Perico Sambeat Sax (Alto).

This album was released on the label Fresh Sound New Talent (catalog number FSNT 037 CD). This album was released in 1998 year. Format of the release is. CD, Album.

Performer: Brad Mehldau. Album Title: New York - Barcelona Crossing Vol. 2. Category: Jazz. Sears Crossing - Sears Crossing. Brad Turner Quartet - What Is. Fu Manchu - California Crossing Demos. Bernadette Washington - Crossing The Beat. Roberto Tarenzi, James Cammack, Jorge Rossy - Love And Other Simple Matters. Kinky - Soun Tha Mi Primer Amor.

On this truly international set, pianist Brad Mehldau leads a stellar quartet that includes saxophonist Perico Sambeat as well as his regular partners Jordi and Mario Rossy in a Barcelona, Spain performance.

de Novo" PERFORMER "Brad Mehldau, Mario Rossy, Perico Sambeat & Jordi Rossy" INDEX 01 00:00:00 FILE "07 - Just One Of Those Things. wav" WAVE TRACK 07 AUDIO TITLE "Just One Of Those Things" PERFORMER "Brad Mehldau, Mario Rossy, Perico Sambeat & Jordi Rossy" INDEX 01 00:00:00 FILE "08 - No Blues. wav" WAVE TRACK 08 AUDIO TITLE "No Blues" PERFORMER "Brad Mehldau, Mario Rossy, Perico Sambeat & Jordi Rossy" INDEX 01 00:00:00. October 2011, 15:48 Brad Mehldau, New York - Barcelona Crossing Volume 2 Used drive : PLEXTOR DVDR PX-L890SA Adapter: 2 ID: 1 Read mode : Secure Utilize accurate stream : Yes Defeat audio cache : Yes Make use of C2 pointers : No Read offset correction : 6 Overread into Lead-In and Lead-Out : No Fill up missing offset samples with silence : Yes Delete.

Brad Mehldau Trio + Perico Sambeat – New York-Barcelona Crossing CD1/2 (1993) - Bodi, 08:16. Brad Mehldau Trio + Perico Sambeat New York-Barcelona Crossing CD1/2 (1993) - Old Folks. Brad Mehldau Trio + Perico Sambeat New York-Barcelona Crossing CD1/2 (1993) - Bodi. Brad Mehldau Trio + Perico Sambeat New York-Barcelona Crossing CD2/2 (1993) - Played Twice.